Login
Username:
Password:
[Signup]
[Recover Account]


Browse Torrents

Poll


You must be logged in to view polls



Latest Torrents
Sharate Aaj (2019)...
- [Size: 3.69 GB]

Metro.Exodus-CPY
- [Size: 50.73 GB]

NCIS.New.Orleans.S...
- [Size: 912.54 MB]

NCIS.New.Orleans.S...
- [Size: 281.67 MB]

NCIS.New.Orleans.S...
- [Size: 915.60 MB]


Torrent Details For "While She Was Out 2008 x264 720p Esub BluRay Dual Audio English Hindi GOPISAHI"

While She Was Out 2008 x264 720p Esub BluRay Dual Audio English Hindi GOPISAHI

Download this torrent | Magnet Download
Health:
Seeds: 332
Leechers: 265
Completed: 1,264 
Last Checked: 13-02-2019 16:29:18
External Torrent
Update Stats



Images Host

Poster
No poster


Watch-Free-HD     Download

Details
Name:While She Was Out 2008 x264 720p Esub BluRay Dual Audio English Hindi GOPISAHI
Description:
 http://www.gopisahi.pw/



While She Was Out 2008 x264 720p Esub BluRay Dual Audio English Hindi GOPISAHI

Format                         : Matroska
Format version                 : Version 4 / Version 2
File size                      : 730 MiB
Duration                       : 1 h 22 min
Overall bit rate               : 1 239 kb/s
Movie name                     : While She Was Out 2008  GOPISAHI

Video
Format                         : AVC
Format/Info                    : Advanced Video Codec
Codec ID                       : V_MPEG4/ISO/AVC
Duration                       : 1 h 22 min
Bit rate                       : 1 050 kb/s
Width                          : 1 280 pixels
Height                         : 694 pixels
Display aspect ratio           : 1.85:1
Frame rate mode                : Constant
Frame rate                     : 25.000 FPS
Color space                    : YUV
Chroma subsampling             : 4:2:0
Bit depth                      : 8 bits
Scan type                      : Progressive
Bits/(Pixel*Frame)             : 0.047
Stream size                    : 619 MiB (85%)
Title                          : GOPISAHI
Writing library                : x264 core 152


Audio #1
Format                         : AAC
Duration                       : 1 h 17 min
Bit rate                       : 96.0 kb/s
Channel(s)                     : 2 channels
Channel positions              : Front: L R
Sampling rate                  : 48.0 kHz
Frame rate                     : 46.875 FPS (1024 SPF)
Compression mode               : Lossy
Delay relative to video        : 23 ms
Stream size                    : 53.2 MiB (7%)
Title                          : GOPISAHI
Language                       : Hindi

Audio #2
Format                         : AAC
Format/Info                    : Advanced Audio Codec
Duration                       : 1 h 22 min
Bit rate                       : 96.0 kb/s
Channel(s)                     : 2 channels
Channel positions              : Front: L R
Sampling rate                  : 48.0 kHz
Frame rate                     : 46.875 FPS (1024 SPF)
Compression mode               : Lossy
Delay relative to video        : -43 ms
Stream size                    : 56.9 MiB (8%)
Title                          : GOPISAHI
Language                       : English

Text
Language                       : English


Category:Movies > Hollywood Dub
Lang:Hindi
Total Size:730.50 MB
Info Hash:6423467729c2b10fb1aac883ebf5348eb4eb3d15
Added By:gopisahi
Date Added:12-02-2019 06:36:28
Downloads:424

Ratings:Not Yet Rated (Log in to rate it)


Tracker:
udp://tracker.coppersurfer.tk:6969/announce


File List: 


Comments

No comments still posted

Top
Copyright 2018 DownloadHD -|- Page Generated In 0.593457 secs.
-|- RSS Feed -|- Feed Info