Login
Username:
Password:
[Signup]
[Recover Account]


Browse Torrents

Poll


You must be logged in to view polls



Latest Torrents
Aashiq.(2001).720p...
- [Size: 1.27 GB]

Fresh.Off.the.Boat...
- [Size: 184.97 MB]

Total Dhamaal (201...
- [Size: 1.48 GB]

Total Dhamaal (201...
- [Size: 415.65 MB]

7.Days.NZ.S11E04.4...
- [Size: 130.79 MB]


Torrent Details For "The Hate U Give 2018 1080p BluRay x264 Dual Audio [Hindi DD 5.1 - English DD 5.1] ESub [MW]"

The Hate U Give 2018 1080p BluRay x264 Dual Audio [Hindi DD 5.1 - English DD 5.1] ESub [MW]

Download this torrent | Magnet Download
Health:
Seeds: 10
Leechers: 50
Completed:
Last Checked: 11-02-2019 11:48:42
External Torrent
Update Stats



Images Host

Poster
No poster


Watch-Free-HD     Download

Details
Name:The Hate U Give 2018 1080p BluRay x264 Dual Audio [Hindi DD 5.1 - English DD 5.1] ESub [MW]
Description:

 


General
Format                                   : Matroska
Format version                           : Version 4
File size                                : 3.11 GiB
Duration                                 : 2 h 13 min
Overall bit rate                         : 3 341 kb/s

Video
ID                                       : 1
Format                                   : AVC
Format/Info                              : Advanced Video Codec
Format profile                           : [email protected]
Format settings                          : CABAC / 4 Ref Frames
Format settings, CABAC                   : Yes
Format settings, RefFrames               : 4 frames
Codec ID                                 : V_MPEG4/ISO/AVC
Duration                                 : 2 h 13 min
Bit rate                                 : 2 500 kb/s
Width                                    : 1 920 pixels
Height                                   : 800 pixels
Display aspect ratio                     : 2.40:1
Frame rate mode                          : Constant
Frame rate                               : 23.976 (23976/1000) FPS
Color space                              : YUV
Chroma subsampling                       : 4:2:0
Bit depth                                : 8 bits
Scan type                                : Progressive
Bits/(Pixel*Frame)                       : 0.068
Stream size                              : 2.32 GiB (75%)
Writing library                          : x264 core 152 r2851M ba24899

Audio #1
ID                                       : 2
Format                                   : AC-3
Format/Info                              : Audio Coding 3
Commercial name                          : Dolby Digital
Codec ID                                 : A_AC3
Duration                                 : 2 h 13 min
Bit rate mode                            : Constant
Bit rate                                 : 448 kb/s
Channel(s)                               : 6 channels
Channel layout                           : L R C LFE Ls Rs
Sampling rate                            : 48.0 kHz
Frame rate                               : 31.250 FPS (1536 SPF)
Bit depth                                : 16 bits
Compression mode                         : Lossy
Stream size                              : 426 MiB (13%)
Language                                 : Hindi
Service kind                             : Complete Main
Default                                  : Yes
Forced                                   : Yes

Audio #2
ID                                       : 3
Format                                   : AC-3
Format/Info                              : Audio Coding 3
Commercial name                          : Dolby Digital
Codec ID                                 : A_AC3
Duration                                 : 2 h 13 min
Bit rate mode                            : Constant
Bit rate                                 : 384 kb/s
Channel(s)                               : 6 channels
Channel layout                           : L R C LFE Ls Rs
Sampling rate                            : 48.0 kHz
Frame rate                               : 31.250 FPS (1536 SPF)
Bit depth                                : 16 bits
Compression mode                         : Lossy
Stream size                              : 366 MiB (11%)
Language                                 : English
Service kind                             : Complete Main
Default                                  : No
Forced                                   : No

Text #1
ID                                       : 4
Format                                   : UTF-8
Codec ID                                 : S_TEXT/UTF8
Codec ID/Info                            : UTF-8 Plain Text
Duration                                 : 2 h 12 min
Bit rate                                 : 82 b/s
Count of elements                        : 2456
Stream size                              : 80.1 KiB (0%)
Default                                  : Yes
Forced                                   : No


Click To View Image

 http://pichub.site/image/krkD0
 http://pichub.site/image/krwmV
 http://pichub.site/image/krynT
 http://pichub.site/image/krhYN
 http://pichub.site/image/krizD
 http://pichub.site/image/krt2Z

Category:Movies > Hollywood Dub
Lang:Hindi
Total Size:3.11 GB
Info Hash:8e068b29ca1b431ba18df86e9cd581539ad56764
Added By:Freaky
Date Added:11-02-2019 11:48:18
Downloads:239

Ratings:Not Yet Rated (Log in to rate it)


Tracker:
udp://tracker.coppersurfer.tk:6969/announce


File List: 


Comments

No comments still posted

Top
Copyright 2018 DownloadHD -|- Page Generated In 1.021374 secs.
-|- RSS Feed -|- Feed Info