Login
Username:
Password:
[Signup]
[Recover Account]


Browse Torrents

Poll


You must be logged in to view polls



Latest Torrents
Sharate Aaj (2019)...
- [Size: 3.69 GB]

Metro.Exodus-CPY
- [Size: 50.73 GB]

NCIS.New.Orleans.S...
- [Size: 912.54 MB]

NCIS.New.Orleans.S...
- [Size: 281.67 MB]

NCIS.New.Orleans.S...
- [Size: 915.60 MB]


Torrent Details For "The Town EXTENDED 2010 x264 720p Esub BluRay Dual Audio English Hindi GOPISAHI"

The Town EXTENDED 2010 x264 720p Esub BluRay Dual Audio English Hindi GOPISAHI

Download this torrent | Magnet Download
Health:
Seeds: 144
Leechers: 386
Completed: 118 
Last Checked: 10-02-2019 15:53:08
External Torrent
Update Stats



Images Host

Poster
No poster


Watch-Free-HD     Download

Details
Name:The Town EXTENDED 2010 x264 720p Esub BluRay Dual Audio English Hindi GOPISAHI
Description:

 http://www.gopisahi.pw/



The Town EXTENDED 2010 x264 720p Esub BluRay Dual Audio English Hindi GOPISAHI

Format                         : Matroska
Format version                 : Version 4 / Version 2
File size                      : 1 004 MiB
Duration                       : 2 h 32 min
Overall bit rate               : 923 kb/s
Movie name                     : GOPISAHI

Video
Format                         : AVC
Format/Info                    : Advanced Video Codec
Codec ID                       : V_MPEG4/ISO/AVC
Duration                       : 2 h 30 min
Bit rate                       : 741 kb/s
Width                          : 1 280 pixels
Height                         : 528 pixels
Display aspect ratio           : 2.40:1
Frame rate mode                : Constant
Frame rate                     : 23.976 (24000/1001) FPS
Color space                    : YUV
Chroma subsampling             : 4:2:0
Bit depth                      : 8 bits
Scan type                      : Progressive
Bits/(Pixel*Frame)             : 0.046
Stream size                    : 798 MiB (79%)
Title                          : GOPISAHI
Writing library                : x264 core 120 r2164 da19765

Audio #1
Format                         : AAC
Format/Info                    : Advanced Audio Codec
Duration                       : 2 h 32 min
Bit rate                       : 96.0 kb/s
Channel(s)                     : 2 channels
Channel positions              : Front: L R
Sampling rate                  : 44.1 kHz / 22.05 kHz
Frame rate                     : 21.533 FPS (1024 SPF)
Compression mode               : Lossy
Delay relative to video        : -83 ms
Stream size                    : 104 MiB (10%)
Title                          : GOPISAHI
Language                       : Hindi

Audio #2
Format                         : AAC
Duration                       : 2 h 30 min
Bit rate                       : 92.0 kb/s
Channel(s)                     : 2 channels
Channel positions              : Front: L R
Sampling rate                  : 48.0 kHz
Frame rate                     : 46.875 FPS (1024 SPF)
Compression mode               : Lossy
Delay relative to video        : -83 ms
Stream size                    : 99.1 MiB (10%)
Title                          : GOPISAHI
Language                       : English

Text
Language                       : English


Category:Movies > Hollywood Dub
Lang:Hindi
Total Size:1,003.89 MB
Info Hash:36369a81f32d1d18f685205bb06ac785c953cb5c
Added By:gopisahi
Date Added:10-02-2019 10:46:03
Downloads:404

Ratings:Not Yet Rated (Log in to rate it)


Tracker:
udp://tracker.coppersurfer.tk:6969/announce


File List: 


Comments

No comments still posted

Top
Copyright 2018 DownloadHD -|- Page Generated In 0.280798 secs.
-|- RSS Feed -|- Feed Info